磨坊高品质音乐论坛 - 提供各种无损音乐下载

 

 

搜索
查看: 100|回复: 3
go

[专辑] [FLAC]最终之战原声OST

Rank: 2

UID
521379 
积分
100 
威望
0  
磨币
345  
帖子
184 
发表于 2019-5-15 19:09 |显示全部帖子
Cover+.jpg


--------------------------------------------------------------------------------
Analyzed: Alan Silvestri / Avengers: Endgame
--------------------------------------------------------------------------------

DR         Peak         RMS     Duration Track
--------------------------------------------------------------------------------
DR15      -0.70 dB   -22.75 dB      4:30 01-Totally Fine
DR11      -5.65 dB   -24.31 dB      1:50 02-Arrival
DR12      -0.69 dB   -18.86 dB      3:09 03-No Trust
DR10      -0.67 dB   -15.72 dB      3:13 04-Where Are They?
DR13      -0.70 dB   -20.52 dB      3:48 05-Becoming Whole Again
DR17      -0.70 dB   -24.90 dB      4:31 06-I Figured It Out
DR14      -0.69 dB   -19.63 dB      4:46 07-Perfectly Not Confusing
DR11      -0.70 dB   -16.79 dB      3:33 08-You Shouldn't Be Here
DR12      -2.01 dB   -21.34 dB      3:51 09-The How Works
DR12      -3.78 dB   -25.94 dB      2:25 10-Snap Out of It
DR12      -0.68 dB   -18.49 dB      1:52 11-So Many Stairs
DR9       -0.20 dB   -13.05 dB      2:04 12-One Shot
DR11      -0.68 dB   -17.15 dB      3:56 13-Watch Each Other's Six
DR10      -0.69 dB   -16.39 dB      4:49 14-I Can't Risk This
DR14      -0.70 dB   -20.09 dB      3:43 15-He Gave It Away
DR12      -0.70 dB   -17.86 dB      2:59 16-The Tool of a Thief
DR14      -0.69 dB   -20.23 dB      3:06 17-The Measure of a Hero
DR12      -0.70 dB   -18.06 dB      4:05 18-Destiny Fulfilled
DR15      -0.70 dB   -21.67 dB      3:14 19-In Plain Sight
DR11      -0.69 dB   -16.87 dB      2:07 20-How Do I Look?
DR12      -3.23 dB   -21.75 dB      2:56 21-Whatever It Takes
DR9       -0.70 dB   -13.79 dB      1:54 22-Not Good
DR11      -0.69 dB   -17.10 dB      2:38 23-Gotta Get Out
DR12      -0.68 dB   -18.21 dB      4:38 24-I Was Made for This
DR9       -0.70 dB   -14.50 dB      3:38 25-Tres Amigos
DR9       -0.69 dB   -13.65 dB      3:16 26-Tunnel Scape
DR8       -0.69 dB   -12.88 dB      4:16 27-Worth It
DR9       -0.69 dB   -11.83 dB      3:17 28-Portals
DR10      -0.68 dB   -13.57 dB      4:55 29-Get This Thing Started
DR8       -0.68 dB   -11.29 dB      2:09 30-The One
DR11     -17.45 dB   -36.43 dB      1:58 31-You Did Good
DR11      -0.70 dB   -17.09 dB      5:55 32-The Real Hero
DR12      -0.70 dB   -20.76 dB      1:46 33-Five Seconds
DR13      -1.38 dB   -21.67 dB      2:57 34-Go Ahead
DR9       -0.68 dB   -11.41 dB      3:11 35-Main on End
--------------------------------------------------------------------------------

Number of tracks:  35
Official DR value: DR11

Samplerate:        96000 Hz
Channels:          2
Bits per sample:   24
Bitrate:           3080 kbps
Codec:             FLAC
================================================================================
链接:
https://pan.baidu.com/s/1qjVG49EqNV0g7GXd8GTskQ
提取码:
x6t8

Rank: 2

UID
1442150 
积分
127 
威望
0  
磨币
1607  
帖子
279 
发表于 2019-5-15 19:59 |显示全部帖子
支持,感谢

Rank: 4

UID
881406 
积分
1783 
威望
0  
磨币
450  
帖子
1828 
发表于 2019-5-16 09:55 |显示全部帖子
谢楼主分享!!!

Rank: 3Rank: 3

UID
1468329 
积分
564 
威望
0  
磨币
1444  
帖子
712 
发表于 2019-5-16 10:20 |显示全部帖子
不错的原声!

Archiver|磨坊高品质音乐论坛 - MOOFEEL.COM

GMT+8, 2019-5-26 23:05 , Processed in 0.041605 second(s), 15 queries .

Powered by-无损音乐 X3.1

© 2001-2010 Moofeel Inc.

本站所有数据均来自网友分享,本站不提供下载,内容如侵犯您的权益请联系:imoofeel@126.com,我们会第一时间删除。