磨坊高品质音乐论坛 - 提供各种无损音乐下载

 

 

搜索
磨坊高品质音乐论坛 - 提供各种无损音乐下载 论坛 高清MV交流区 《Beautiful Liar》Beyonce & Shakira[1440X810/110MB ...
查看: 4641|回复: 98
go

[外文] 《Beautiful Liar》Beyonce & Shakira[1440X810/110MB/MKV][百度云]

Rank: 24Rank: 24Rank: 24Rank: 24Rank: 24Rank: 24

UID
2654 
积分
33439 
威望
2953  
磨币
7655  
帖子
19749 

版主专用勋章 社区巡警勋章 音乐宗师勋章 影视专家勋章 SB会员专用勋章 女狼专用勋章 大胸妹勋章 摩羯座

成长值: 600
发表于 2011-6-22 20:34 |显示全部帖子
本帖最后由 changshu008 于 2015-10-30 15:15 编辑

MV名称:Beautiful Liar
歌手:Beyonce & Shakira
资源格式:MKV




D:\高清MV区\moofeel.com_Beyonce &  Shakira - Beautiful Liar.mkv
  General
    Unique ID : 242575066216764963687014659352252402905 (0xB67E42251DEAE4658AEC0797D0E04CD9)
    Complete name : D:\高清MV区\moofeel.com_Beyonce &  Shakira - Beautiful Liar.mkv
    Format : Matroska
    File size : 110 MiB
    Duration : 3mn 25s
    Overall bit rate : 4 479 Kbps
    Encoded date : UTC 2009-10-30 09:18:05
    Writing application : mkvmerge v2.9.0 ('Moanin'') built on May 22 2009 17:46:31
    Writing library : libebml v0.7.7 + libmatroska v0.8.1
  Video #1
    ID : 1
    Format : AVC
    Format/Info : Advanced Video Codec
    Format profile : High@L4.0
    Format settings, CABAC : Yes
    Format settings, ReFrames : 3 frames
    Codec ID : V_MPEG4/ISO/AVC
    Duration : 3mn 25s
    Bit rate mode : Variable
    Bit rate : 4 096 Kbps
    Maximum bit rate : 25.0 Mbps
    Width : 1 440 pixels
    Height : 810 pixels
    Display aspect ratio : 16:9
    Frame rate : 29.970 fps
    Color space : YUV
    Chroma subsampling : 4:2:0
    Bit depth : 8 bits
    Scan type : Progressive
    Bits/(Pixel*Frame) : 0.117
    Stream size : 98.3 MiB (89%)
    Writing library : x264 core 67 r1169M ab85c9b
    Encoding settings : cabac=1 / ref=3 / deblock=1:0:0 / analyse=0x3:0x133 / me=umh / subme=7 / psy_rd=1.0:0.0 / mixed_ref=1 / me_range=16 / chroma_me=1 / trellis=1 / 8x8dct=1 / cqm=0 / deadzone=21,11 / chroma_qp_offset=-2 / threads=3 / nr=0 / decimate=1 / mbaff=0 / bframes=3 / b_pyramid=0 / b_adapt=1 / b_bias=0 / direct=3 / wpredb=1 / keyint=250 / keyint_min=25 / scenecut=40 / rc=2pass / bitrate=4096 / ratetol=1.0 / qcomp=0.60 / qpmin=10 / qpmax=51 / qpstep=4 / cplxblur=20.0 / qblur=0.5 / vbv_maxrate=25000 / vbv_bufsize=25000 / ip_ratio=1.40 / pb_ratio=1.30 / aq=1:1.00
  Audio #2
    ID : 2
    Format : AC-3
    Format/Info : Audio Coding 3
    Mode extension : CM (complete main)
    Codec ID : A_AC3
    Duration : 3mn 25s
    Bit rate mode : Constant
    Bit rate : 384 Kbps
    Channel(s) : 2 channels
    Channel positions : Front: L R
    Sampling rate : 48.0 KHz
    Bit depth : 16 bits
    Compression mode : Lossy
    Stream size : 9.43 MiB (9%)

下载地址:
游客,如果你要查看本帖隐藏内容请回复

Rank: 8Rank: 8

UID
3865 
积分
13150 
威望
43  
磨币
217  
帖子
12253 
发表于 2011-6-22 20:43 |显示全部帖子
没看过最近发财了,给你捧场来了

Rank: 2

UID
77974 
积分
156 
威望
0  
磨币
64  
帖子
131 
发表于 2011-6-23 08:36 |显示全部帖子
本帖最后由 eppe 于 2011-6-23 08:37 编辑

挺喜欢夏奇拉呢。
多谢版主想的周到啊。呵呵

Rank: 1

UID
81189 
积分
15 
威望
0  
磨币
0  
帖子
14 
发表于 2011-6-30 20:48 |显示全部帖子
很不错,给你捧场了楼主

Rank: 1

UID
81189 
积分
15 
威望
0  
磨币
0  
帖子
14 
发表于 2011-6-30 20:49 |显示全部帖子
很不错,给你捧场了楼主,谢谢

Rank: 2

UID
89023 
积分
35 
威望
0  
磨币
0  
帖子
35 
发表于 2011-8-28 16:29 |显示全部帖子
谢谢楼主分享!

Rank: 1

UID
91004 
积分
威望
0  
磨币
0  
帖子
7 
发表于 2011-9-4 10:04 |显示全部帖子
看一下怎么样

Rank: 2

UID
98643 
积分
180 
威望
0  
磨币
0  
帖子
180 
发表于 2011-10-16 15:52 |显示全部帖子
经典老歌

Rank: 1

UID
110294 
积分
威望
0  
磨币
0  
帖子
14 
发表于 2011-11-22 18:28 |显示全部帖子
谢谢分享

Rank: 2

UID
109604 
积分
43 
威望
0  
磨币
64  
帖子
55 
发表于 2011-11-22 20:27 |显示全部帖子
谢谢楼主分享!

Rank: 2

UID
105369 
积分
49 
威望
0  
磨币
34  
帖子
50 
发表于 2011-11-29 08:59 |显示全部帖子
顶一个

Rank: 1

UID
117916 
积分
11 
威望
0  
磨币
0  
帖子
11 
发表于 2011-12-4 12:13 |显示全部帖子
应该不错

Rank: 1

UID
117916 
积分
11 
威望
0  
磨币
0  
帖子
11 
发表于 2011-12-4 12:14 |显示全部帖子
应该不错

Rank: 1

UID
117916 
积分
11 
威望
0  
磨币
0  
帖子
11 
发表于 2011-12-4 12:14 |显示全部帖子
应该不错

Rank: 1

UID
141534 
积分
威望
0  
磨币
0  
帖子
1 
发表于 2012-2-2 15:57 |显示全部帖子
look~~~~~~~~~~~~~~~~~~`
你需要登录后才可以回帖 登录 | 注册

公告 关闭


密码找回

最近发现有少量会员帐号无法登陆,经后台核实后可在此贴申请找回密码。 回复请提供帐号及常用邮箱一个。 或将以上信息发送至imoofeel@126.com


查看

Archiver|磨坊高品质音乐论坛 - MOOFEEL.COM

GMT+8, 2018-6-25 02:26 , Processed in 0.084223 second(s), 17 queries .

Powered by-无损音乐 X3.1

© 2001-2010 Moofeel Inc.

本站所有数据均来自网友分享,本站不提供下载,内容如侵犯您的权益请联系:imoofeel@126.com,我们会第一时间删除。