磨坊高品质音乐论坛 - 提供各种无损音乐下载

 

 

搜索
磨坊高品质音乐论坛 - 提供各种无损音乐下载 论坛 普通品质MV交流区 《奔》孙燕姿[DVD原版/232MB/VOB][百度云]
查看: 5946|回复: 72
go

[中文] 《奔》孙燕姿[DVD原版/232MB/VOB][百度云]

Rank: 24Rank: 24Rank: 24Rank: 24Rank: 24Rank: 24

UID
2654 
积分
35266 
威望
3394  
磨币
9485  
帖子
20211 

版主专用勋章 社区巡警勋章 音乐宗师勋章 SB会员专用勋章 摩羯座

发表于 2011-6-28 12:44 |显示全部帖子
本帖最后由 changshu008 于 2015-11-10 21:38 编辑

MV名称:奔
歌手:孙燕姿
资源格式:VOB




D:\高清MV区\moofeel.com_孙燕姿 - 奔.vob
   General
      Complete name : D:\高清MV区\moofeel.com_孙燕姿 - 奔.vob
      Format : MPEG-PS
      File size : 232 MiB
      Duration : 3mn 45s
      Overall bit rate : 8 653 Kbps
   Video #224
      ID : 224 (0xE0)
      Format : MPEG Video
      Format version : Version 2
      Format profile : Main@Main
      Format settings, BVOP : Yes
      Format settings, Matrix : Default
      Format settings, GOP : M=3, N=12
      Duration : 3mn 45s
      Bit rate mode : Variable
      Bit rate : 8 289 Kbps
      Nominal bit rate : 9 608 Kbps
      Width : 720 pixels
      Height : 576 pixels
      Display aspect ratio : 4:3
      Frame rate : 25.000 fps
      Standard : PAL
      Color space : YUV
      Chroma subsampling : 4:2:0
      Bit depth : 8 bits
      Scan type : Interlaced
      Scan order : Top Field First
      Compression mode : Lossy
      Bits/(Pixel*Frame) : 0.799
      Stream size : 223 MiB (96%)
   Audio #189-128
      ID : 189 (0xBD)-128 (0x80)
      Format : AC-3
      Format/Info : Audio Coding 3
      Mode extension : CM (complete main)
      Muxing mode : DVD-Video
      Duration : 3mn 44s
      Bit rate mode : Constant
      Bit rate : 192 Kbps
      Channel(s) : 2 channels
      Channel positions : Front: L R
      Sampling rate : 48.0 KHz
      Bit depth : 16 bits
      Compression mode : Lossy
      Delay relative to video : -216ms
      Stream size : 5.14 MiB (2%)

下载地址:
游客,如果你要查看本帖隐藏内容请回复

Rank: 8Rank: 8

UID
3865 
积分
13150 
威望
43  
磨币
217  
帖子
12248 
发表于 2011-6-28 20:00 |显示全部帖子
燕姿的声音,很独特
曾经百听不厌,呵呵

UID
70600 
积分
57 
威望
0  
磨币
101  
帖子
48 
发表于 2011-7-16 10:12 |显示全部帖子
提示: 作者被禁止或删除 内容自动屏蔽

Rank: 2

UID
52206 
积分
372 
威望
0  
磨币
216  
帖子
354 
发表于 2011-8-13 14:12 |显示全部帖子
收藏了···············

Rank: 1

UID
61371 
积分
18 
威望
0  
磨币
543  
帖子
9 
发表于 2011-11-7 11:52 |显示全部帖子
谢谢 楼主的 贡献 再接再厉 支持你

Rank: 1

UID
118510 
积分
11 
威望
0  
磨币
-2  
帖子
9 
发表于 2011-12-6 12:36 |显示全部帖子
ddddddddddddd

Rank: 2

UID
162680 
积分
32 
威望
0  
磨币
0  
帖子
176 
发表于 2012-3-23 20:32 |显示全部帖子
01年就特别听,还有一首绿光

Rank: 1

UID
178895 
积分
威望
0  
磨币
0  
帖子
1 
发表于 2012-5-21 00:56 |显示全部帖子
回复 changshu008 的帖子

感谢楼主

Rank: 2

UID
363339 
积分
38 
威望
0  
磨币
36  
帖子
38 
发表于 2013-1-26 14:04 |显示全部帖子
顶燕姿!!!

Rank: 1

UID
417556 
积分
威望
0  
磨币
0  
帖子
8 
发表于 2013-3-21 18:40 |显示全部帖子
谢谢楼主分享

Rank: 1

UID
418064 
积分
威望
0  
磨币
0  
帖子
1 
发表于 2013-3-22 07:59 |显示全部帖子
这个好喜欢的孙燕姿

Rank: 2

UID
391974 
积分
42 
威望
0  
磨币
0  
帖子
31 
发表于 2013-3-24 16:00 |显示全部帖子

谢谢楼主分享

Rank: 2

UID
391974 
积分
42 
威望
0  
磨币
0  
帖子
31 
发表于 2013-3-24 22:01 |显示全部帖子
感谢楼主

Rank: 2

UID
350418 
积分
274 
威望
0  
磨币
43  
帖子
244 
发表于 2013-4-3 20:17 |显示全部帖子
赶紧分享

Rank: 1

UID
472413 
积分
10 
威望
0  
磨币
0  
帖子
10 
发表于 2013-5-7 12:40 |显示全部帖子
你需要登录后才可以回帖 登录 | 注册

Archiver|磨坊高品质音乐论坛 - MOOFEEL.COM

GMT+8, 2019-1-21 04:48 , Processed in 0.046398 second(s), 16 queries .

Powered by-无损音乐 X3.1

© 2001-2010 Moofeel Inc.

本站所有数据均来自网友分享,本站不提供下载,内容如侵犯您的权益请联系:imoofeel@126.com,我们会第一时间删除。