磨坊高品质音乐论坛 - 提供各种无损音乐下载

 

 

搜索
磨坊高品质音乐论坛 - 提供各种无损音乐下载 论坛 普通品质MV交流区 《味道》辛晓琪[DVD原版/274MB/VOB][百度云]
查看: 16865|回复: 293
go

[中文] 《味道》辛晓琪[DVD原版/274MB/VOB][百度云]  

Rank: 24Rank: 24Rank: 24Rank: 24Rank: 24Rank: 24

UID
2654 
积分
35415 
威望
3430  
磨币
9701  
帖子
20250 

版主专用勋章 社区巡警勋章 音乐宗师勋章 SB会员专用勋章 摩羯座

发表于 2011-6-28 12:50 |显示全部帖子
本帖最后由 changshu008 于 2015-11-10 21:39 编辑

MV名称:味道
歌手:辛晓琪
资源格式:VOB




D:\高清MV区\moofeel.com_辛晓琪 - 味道.vob
  General
    Complete name : D:\高清MV区\moofeel.com_辛晓琪 - 味道.vob
    Format : MPEG-PS
    File size : 274 MiB
    Duration : 4mn 35s
    Overall bit rate : 8 360 Kbps
  Video #224
    ID : 224 (0xE0)
    Format : MPEG Video
    Format version : Version 2
    Format profile : Main@Main
    Format settings, BVOP : Yes
    Format settings, Matrix : Default
    Format settings, GOP : M=3, N=15
    Duration : 4mn 35s
    Bit rate mode : Variable
    Bit rate : 6 658 Kbps
    Nominal bit rate : 8 264 Kbps
    Width : 720 pixels
    Height : 480 pixels
    Display aspect ratio : 4:3
    Frame rate : 29.970 fps
    Standard : NTSC
    Color space : YUV
    Chroma subsampling : 4:2:0
    Bit depth : 8 bits
    Scan type : Interlaced
    Scan order : Top Field First
    Compression mode : Lossy
    Bits/(Pixel*Frame) : 0.643
    Stream size : 219 MiB (80%)
  Audio #189-160
    ID : 189 (0xBD)-160 (0xA0)
    Format : PCM
    Format settings, Endianness : Big
    Format settings, Sign : Signed
    Muxing mode : DVD-Video
    Duration : 4mn 35s
    Bit rate mode : Constant
    Bit rate : 1 536 Kbps
    Channel(s) : 2 channels
    Channel positions : Front: L R
    Sampling rate : 48.0 KHz
    Bit depth : 16 bits
    Delay relative to video : -219ms
    Stream size : 50.4 MiB (18%)

下载地址:
游客,如果你要查看本帖隐藏内容请回复

Rank: 8Rank: 8

UID
3865 
积分
13150 
威望
43  
磨币
217  
帖子
12248 
发表于 2011-6-28 20:00 |显示全部帖子
一次也没试过的MM,呵呵
不知道啥感觉

UID
70600 
积分
57 
威望
0  
磨币
101  
帖子
48 
发表于 2011-7-16 10:56 |显示全部帖子
提示: 作者被禁止或删除 内容自动屏蔽

Rank: 2

UID
60022 
积分
35 
威望
0  
磨币
75  
帖子
33 
发表于 2011-8-4 16:36 |显示全部帖子
楼主很强大,谢了

Rank: 2

UID
52206 
积分
372 
威望
0  
磨币
216  
帖子
354 
发表于 2011-8-13 14:07 |显示全部帖子
收藏了·············

Rank: 1

UID
87743 
积分
26 
威望
0  
磨币
105  
帖子
23 
发表于 2011-8-24 11:41 |显示全部帖子
謝謝大大分享

Rank: 1

UID
28697 
积分
10 
威望
0  
磨币
0  
帖子
9 
发表于 2011-9-8 08:12 |显示全部帖子
hhhhhhhhhhhhhhhhhhhhhhhhhh
已有 1 人评分经验 收起 理由
changshu008 -2 恶意灌水

总评分: 经验 -2   查看全部评分

Rank: 1

UID
92650 
积分
16 
威望
0  
磨币
0  
帖子
16 
发表于 2011-9-13 08:47 |显示全部帖子
这首歌很经典

Rank: 1

UID
16946 
积分
25 
威望
0  
磨币
9  
帖子
25 
发表于 2011-9-16 11:42 |显示全部帖子
想你是你在眼前

Rank: 3Rank: 3

UID
70526 
积分
520 
威望
0  
磨币
53  
帖子
497 
发表于 2011-10-4 23:53 |显示全部帖子
这真是经典

Rank: 1

UID
97304 
积分
威望
0  
磨币
0  
帖子
4 
发表于 2011-10-5 21:24 |显示全部帖子
已经是一首非常老的歌了,但是很经典

Rank: 1

UID
98094 
积分
威望
0  
磨币
1  
帖子
4 
发表于 2011-10-9 11:41 |显示全部帖子
谢谢,太感谢了

Rank: 2

UID
98794 
积分
217 
威望
0  
磨币
0  
帖子
221 
发表于 2011-10-12 13:13 |显示全部帖子
收藏了·············

Rank: 1

UID
98998 
积分
威望
0  
磨币
0  
帖子
2 
发表于 2011-10-13 01:23 |显示全部帖子
感谢分享啊,嘿嘿

Rank: 1

UID
113722 
积分
威望
0  
磨币
0  
帖子
4 
发表于 2011-11-24 17:57 |显示全部帖子
好东西
你需要登录后才可以回帖 登录 | 注册

Archiver|磨坊高品质音乐论坛 - MOOFEEL.COM

GMT+8, 2019-3-24 00:43 , Processed in 0.054715 second(s), 17 queries .

Powered by-无损音乐 X3.1

© 2001-2010 Moofeel Inc.

本站所有数据均来自网友分享,本站不提供下载,内容如侵犯您的权益请联系:imoofeel@126.com,我们会第一时间删除。