磨坊高品质音乐论坛 - 提供各种无损音乐下载

 

 

搜索
磨坊高品质音乐论坛 - 提供各种无损音乐下载 论坛 普通品质MV交流区 《Complicated》Avril Lavigne 艾薇儿[DVD原版/286MB/VO ...
查看: 13864|回复: 149
go

[外文] 《Complicated》Avril Lavigne 艾薇儿[DVD原版/286MB/VOB][百度云]  

Rank: 24Rank: 24Rank: 24Rank: 24Rank: 24Rank: 24

UID
2654 
积分
34662 
威望
3244  
磨币
8661  
帖子
20065 

版主专用勋章 社区巡警勋章 音乐宗师勋章 SB会员专用勋章 摩羯座

发表于 2011-6-28 13:01 |显示全部帖子
本帖最后由 changshu008 于 2015-11-10 21:36 编辑

MV名称:Complicated
歌手:Avril Lavigne 艾薇儿
资源格式:VOB




D:\高清MV区\moofeel.com_Avril Lavigne - Complicated.vob
  General
    Complete name : D:\高清MV区\moofeel.com_Avril Lavigne - Complicated.vob
    Format : MPEG-PS
    File size : 287 MiB
    Duration : 4mn 17s
    Overall bit rate : 9 332 Kbps
  Video #224
    ID : 224 (0xE0)
    Format : MPEG Video
    Format version : Version 2
    Format profile : Main@Main
    Format settings, BVOP : Yes
    Format settings, Matrix : Default
    Format settings, GOP : M=3, N=15
    Duration : 4mn 17s
    Bit rate mode : Variable
    Bit rate : 7 800 Kbps
    Width : 720 pixels
    Height : 480 pixels
    Display aspect ratio : 4:3
    Frame rate : 29.970 fps
    Standard : NTSC
    Color space : YUV
    Chroma subsampling : 4:2:0
    Bit depth : 8 bits
    Scan type : Interlaced
    Scan order : Bottom Field First
    Compression mode : Lossy
    Bits/(Pixel*Frame) : 0.753
    Stream size : 234 MiB (82%)
  Audio #189-160
    ID : 189 (0xBD)-160 (0xA0)
    Format : PCM
    Format settings, Endianness : Big
    Format settings, Sign : Signed
    Muxing mode : DVD-Video
    Duration : 4mn 17s
    Bit rate mode : Constant
    Bit rate : 1 536 Kbps
    Channel(s) : 2 channels
    Channel positions : Front: L R
    Sampling rate : 48.0 KHz
    Bit depth : 16 bits
    Delay relative to video : -419ms
    Stream size : 47.2 MiB (16%)

下载地址:
游客,如果你要查看本帖隐藏内容请回复

Rank: 8Rank: 8

UID
3865 
积分
13150 
威望
43  
磨币
217  
帖子
12251 
发表于 2011-6-28 19:59 |显示全部帖子
艾薇儿啊,不错不错
顶顶了

Rank: 1

UID
81506 
积分
23 
威望
0  
磨币
6  
帖子
23 
发表于 2011-7-3 11:40 |显示全部帖子
经典了,当年还去买正版

Rank: 1

UID
82669 
积分
威望
0  
磨币
0  
帖子
1 
发表于 2011-7-11 12:19 |显示全部帖子
最爱Avril ,哈哈哈,顶

Rank: 2

UID
41951 
积分
217 
威望
0  
磨币
379  
帖子
328 
发表于 2011-7-12 18:18 |显示全部帖子
最爱Avril ,哈哈哈

UID
70600 
积分
57 
威望
0  
磨币
101  
帖子
48 
发表于 2011-7-16 10:55 |显示全部帖子
提示: 作者被禁止或删除 内容自动屏蔽

Rank: 1

UID
84741 
积分
威望
0  
磨币
0  
帖子
3 
发表于 2011-7-26 15:29 |显示全部帖子
终于找到了

Rank: 1

UID
6939 
积分
37 
威望
0  
磨币
16  
帖子
40 
发表于 2011-7-28 11:08 |显示全部帖子
相当不错啦。支持

Rank: 1

UID
96075 
积分
11 
威望
0  
磨币
0  
帖子
11 
发表于 2011-9-30 07:56 |显示全部帖子
反复发反反复复
已有 1 人评分经验 收起 理由
changshu008 -2 严重灌水

总评分: 经验 -2   查看全部评分

Rank: 1

UID
106368 
积分
威望
0  
磨币
43  
帖子
9 
发表于 2011-11-6 02:18 |显示全部帖子
j就当买正版了

Rank: 1

UID
109571 
积分
威望
0  
磨币
0  
帖子
3 
发表于 2011-11-14 21:10 |显示全部帖子
的要覅等也

Rank: 1

UID
109966 
积分
威望
0  
磨币
0  
帖子
3 
发表于 2011-11-15 21:05 |显示全部帖子
可以 ,好东西

Rank: 1

UID
118796 
积分
威望
0  
磨币
0  
帖子
15 
发表于 2011-12-11 23:33 |显示全部帖子
继续努力,继续努力

Rank: 1

UID
127284 
积分
威望
0  
磨币
0  
帖子
6 
发表于 2011-12-25 19:05 |显示全部帖子
xiexie

Rank: 1

UID
131036 
积分
威望
0  
磨币
0  
帖子
1 
发表于 2012-1-1 19:50 |显示全部帖子
几好听啊!!
你需要登录后才可以回帖 登录 | 注册

公告 关闭


密码找回

最近发现有少量会员帐号无法登陆,经后台核实后可申请找回密码。 回复请提供帐号及常用邮箱一个。 请将以上信息发送至imoofeel@126.com


查看

Archiver|磨坊高品质音乐论坛 - MOOFEEL.COM

GMT+8, 2018-9-26 00:42 , Processed in 0.106460 second(s), 18 queries .

Powered by-无损音乐 X3.1

© 2001-2010 Moofeel Inc.

本站所有数据均来自网友分享,本站不提供下载,内容如侵犯您的权益请联系:imoofeel@126.com,我们会第一时间删除。