磨坊高品质音乐论坛 - 提供各种无损音乐下载

 

 

搜索
磨坊高品质音乐论坛 - 提供各种无损音乐下载 论坛 普通品质MV交流区 《All I Have To Give》后街男孩[DVD原版/203MB/VOB][百 ...
查看: 2584|回复: 35
go

[外文] 《All I Have To Give》后街男孩[DVD原版/203MB/VOB][百度云]

Rank: 24Rank: 24Rank: 24Rank: 24Rank: 24Rank: 24

UID
2654 
积分
35415 
威望
3430  
磨币
9701  
帖子
20250 

版主专用勋章 社区巡警勋章 音乐宗师勋章 SB会员专用勋章 摩羯座

发表于 2012-1-3 20:52 |显示全部帖子
本帖最后由 changshu008 于 2017-3-13 18:07 编辑

MV名称:All I Have To Give
歌手:后街男孩
资源格式:VOB




E:\高清MV\moofeel.com_All I Have To Give.vob
   General
      Complete name : E:\高清MV\moofeel.com_All I Have To Give.vob
      Format : MPEG-PS
      File size : 203 MiB
      Duration : 4mn 11s
      Overall bit rate : 6 783 Kbps
   Video #224
      ID : 224 (0xE0)
      Format : MPEG Video
      Format version : Version 2
      Format profile : Main@Main
      Format settings, BVOP : Yes
      Format settings, Matrix : Default
      Format settings, GOP : M=3, N=13
      Duration : 4mn 11s
      Bit rate mode : Variable
      Bit rate : 6 040 Kbps
      Nominal bit rate : 8 000 Kbps
      Width : 720 pixels
      Height : 576 pixels
      Display aspect ratio : 4:3
      Frame rate : 25.000 fps
      Standard : PAL
      Color space : YUV
      Chroma subsampling : 4:2:0
      Bit depth : 8 bits
      Scan type : Interlaced
      Scan order : Top Field First
      Bits/(Pixel*Frame) : 0.583
      Stream size : 181 MiB (89%)
   Audio #128
      ID : 128 (0x80)
      Format : AC-3
      Format/Info : Audio Coding 3
      Mode extension : CM (complete main)
      Duration : 4mn 11s
      Bit rate mode : Constant
      Bit rate : 224 Kbps
      Channel(s) : 2 channels
      Channel positions : Front: L R
      Sampling rate : 48.0 KHz
      Bit depth : 16 bits
      Stream size : 6.70 MiB (3%)
   Audio #129
      ID : 129 (0x81)
      Format : AC-3
      Format/Info : Audio Coding 3
      Mode extension : CM (complete main)
      Duration : 4mn 11s
      Bit rate mode : Constant
      Bit rate : 384 Kbps
      Channel(s) : 6 channels
      Channel positions : Front: L C R, Side: L R, LFE
      Sampling rate : 48.0 KHz
      Bit depth : 16 bits
      Stream size : 11.5 MiB (6%)
   Text #32
      ID : 32 (0x20)
      Format : RLE
      Format/Info : Run-length encoding
      Video delay : 1s 400ms
   Text #33
      ID : 33 (0x21)
      Format : RLE
      Format/Info : Run-length encoding
      Video delay : 1s 400ms
   Text #34
      ID : 34 (0x22)
      Format : RLE
      Format/Info : Run-length encoding
      Video delay : 1s 400ms
   Text #35
      ID : 35 (0x23)
      Format : RLE
      Format/Info : Run-length encoding
      Video delay : 1s 400ms
   Text #36
      ID : 36 (0x24)
      Format : RLE
      Format/Info : Run-length encoding
      Video delay : 1s 400ms

下载地址:
游客,如果你要查看本帖隐藏内容请回复

Rank: 8Rank: 8

UID
3865 
积分
13150 
威望
43  
磨币
217  
帖子
12248 
发表于 2012-1-3 21:05 |显示全部帖子
这里还有个没发现嘛,呵呵
先顶再说

Rank: 1

UID
160757 
积分
威望
0  
磨币
0  
帖子
8 
发表于 2012-3-18 13:47 |显示全部帖子
谢谢 下来看看啦

Rank: 2

UID
55151 
积分
78 
威望
0  
磨币
149  
帖子
147 
发表于 2012-11-26 22:39 |显示全部帖子
谢谢楼主,辛苦了!

Rank: 2

UID
291621 
积分
94 
威望
0  
磨币
63  
帖子
92 
发表于 2012-11-28 09:29 |显示全部帖子
不知道DVD能不能播放这个格式

Rank: 2

UID
184139 
积分
234 
威望
0  
磨币
0  
帖子
230 
发表于 2013-3-6 22:17 |显示全部帖子
感谢楼主

Rank: 1

UID
288451 
积分
27 
威望
0  
磨币
2  
帖子
25 
发表于 2013-3-19 09:38 |显示全部帖子
LZ好人,谢谢分享

Rank: 2

UID
416572 
积分
37 
威望
0  
磨币
0  
帖子
37 
发表于 2013-3-22 16:07 |显示全部帖子
谢谢 下来看看啦

Rank: 2

UID
411516 
积分
38 
威望
0  
磨币
15  
帖子
37 
发表于 2013-5-2 19:45 |显示全部帖子
给你磨币

Rank: 2

UID
531926 
积分
51 
威望
0  
磨币
0  
帖子
50 
发表于 2013-7-8 15:46 |显示全部帖子
好东西一定要收藏

Rank: 1

UID
529687 
积分
威望
0  
磨币
0  
帖子
8 
发表于 2013-7-8 17:32 |显示全部帖子
888888888888888888888888888888

Rank: 2

UID
493556 
积分
158 
威望
0  
磨币
66  
帖子
152 
发表于 2013-8-9 23:35 |显示全部帖子
111111111111111

Rank: 2

UID
296294 
积分
71 
威望
0  
磨币
0  
帖子
70 
发表于 2013-8-22 14:02 |显示全部帖子

喜欢这首歌的,MV还没看过,收藏了

UID
573792 
积分
110 
威望
0  
磨币
35  
帖子
102 
发表于 2013-8-22 14:29 |显示全部帖子
提示: 作者被禁止或删除 内容自动屏蔽

Rank: 2

UID
566897 
积分
361 
威望
0  
磨币
0  
帖子
339 
发表于 2013-8-22 16:03 |显示全部帖子
好听,收下,谢谢
你需要登录后才可以回帖 登录 | 注册

Archiver|磨坊高品质音乐论坛 - MOOFEEL.COM

GMT+8, 2019-3-24 05:31 , Processed in 0.046315 second(s), 16 queries .

Powered by-无损音乐 X3.1

© 2001-2010 Moofeel Inc.

本站所有数据均来自网友分享,本站不提供下载,内容如侵犯您的权益请联系:imoofeel@126.com,我们会第一时间删除。