磨坊高品质音乐论坛 - 提供各种无损音乐下载

 

 

搜索
磨坊高品质音乐论坛 - 提供各种无损音乐下载 论坛 普通品质MV交流区 《As Long As You Love Me》后街男孩[DVD原版/184MB/VOB ...
查看: 17355|回复: 254
go

[外文] 《As Long As You Love Me》后街男孩[DVD原版/184MB/VOB][百度云]  

Rank: 24Rank: 24Rank: 24Rank: 24Rank: 24Rank: 24

UID
2654 
积分
35415 
威望
3430  
磨币
9701  
帖子
20250 

版主专用勋章 社区巡警勋章 音乐宗师勋章 SB会员专用勋章 摩羯座

发表于 2012-1-3 20:56 |显示全部帖子
本帖最后由 changshu008 于 2017-3-13 18:08 编辑

MV名称:As Long As You Love Me
歌手:后街男孩
资源格式:VOB




E:\高清MV\moofeel.com_As Long As You Love Me.vob
   General
      Complete name : E:\高清MV\moofeel.com_As Long As You Love Me.vob
      Format : MPEG-PS
      File size : 184 MiB
      Duration : 3mn 47s
      Overall bit rate : 6 777 Kbps
   Video #224
      ID : 224 (0xE0)
      Format : MPEG Video
      Format version : Version 2
      Format profile : Main@Main
      Format settings, BVOP : Yes
      Format settings, Matrix : Default
      Format settings, GOP : M=3, N=13
      Duration : 3mn 47s
      Bit rate mode : Variable
      Bit rate : 6 034 Kbps
      Nominal bit rate : 8 000 Kbps
      Width : 720 pixels
      Height : 480 pixels
      Display aspect ratio : 4:3
      Frame rate : 29.970 fps
      Standard : NTSC
      Color space : YUV
      Chroma subsampling : 4:2:0
      Bit depth : 8 bits
      Scan type : Interlaced
      Scan order : Top Field First
      Bits/(Pixel*Frame) : 0.583
      Stream size : 163 MiB (89%)
   Audio #128
      ID : 128 (0x80)
      Format : AC-3
      Format/Info : Audio Coding 3
      Mode extension : CM (complete main)
      Duration : 3mn 47s
      Bit rate mode : Constant
      Bit rate : 224 Kbps
      Channel(s) : 2 channels
      Channel positions : Front: L R
      Sampling rate : 48.0 KHz
      Bit depth : 16 bits
      Video delay : 12ms
      Stream size : 6.07 MiB (3%)
   Audio #129
      ID : 129 (0x81)
      Format : AC-3
      Format/Info : Audio Coding 3
      Mode extension : CM (complete main)
      Duration : 3mn 47s
      Bit rate mode : Constant
      Bit rate : 384 Kbps
      Channel(s) : 6 channels
      Channel positions : Front: L C R, Side: L R, LFE
      Sampling rate : 48.0 KHz
      Bit depth : 16 bits
      Video delay : 12ms
      Stream size : 10.4 MiB (6%)
   Text #32
      ID : 32 (0x20)
      Format : RLE
      Format/Info : Run-length encoding
      Video delay : 1s 235ms
   Text #33
      ID : 33 (0x21)
      Format : RLE
      Format/Info : Run-length encoding
      Video delay : 1s 235ms
   Text #34
      ID : 34 (0x22)
      Format : RLE
      Format/Info : Run-length encoding
      Video delay : 1s 235ms
   Text #35
      ID : 35 (0x23)
      Format : RLE
      Format/Info : Run-length encoding
      Video delay : 1s 235ms
   Text #36
      ID : 36 (0x24)
      Format : RLE
      Format/Info : Run-length encoding
      Video delay : 1s 235ms

下载地址:
游客,如果你要查看本帖隐藏内容请回复

Rank: 8Rank: 8

UID
3865 
积分
13150 
威望
43  
磨币
217  
帖子
12248 
发表于 2012-1-3 20:58 |显示全部帖子
好久没看到了,BSB的MV很经典

Rank: 2

UID
132001 
积分
31 
威望
0  
磨币
1  
帖子
46 
发表于 2012-1-9 09:18 |显示全部帖子
两个字,好听

Rank: 1

UID
136397 
积分
威望
0  
磨币
0  
帖子
1 
发表于 2012-1-13 10:44 |显示全部帖子
经典之作,谢谢分享

Rank: 1

UID
137256 
积分
威望
0  
磨币
0  
帖子
1 
发表于 2012-1-14 21:52 |显示全部帖子
bucuo bubuo

Rank: 1

UID
137316 
积分
威望
0  
磨币
3  
帖子
15 
发表于 2012-1-15 09:53 |显示全部帖子
感谢分享啊

Rank: 1

UID
138771 
积分
威望
0  
磨币
0  
帖子
2 
发表于 2012-1-17 22:39 |显示全部帖子
赞~

Rank: 1

UID
139156 
积分
威望
0  
磨币
0  
帖子
2 
发表于 2012-1-18 19:40 |显示全部帖子
xiexie

Rank: 2

UID
142300 
积分
48 
威望
0  
磨币
173  
帖子
63 
发表于 2012-2-7 19:21 |显示全部帖子
希望还可以下载

Rank: 1

UID
158828 
积分
威望
0  
磨币
0  
帖子
1 
发表于 2012-3-14 19:34 |显示全部帖子
支持.......

Rank: 1

UID
159559 
积分
威望
0  
磨币
0  
帖子
1 
发表于 2012-3-16 12:07 |显示全部帖子
As Long As You Love Me

Rank: 1

UID
159702 
积分
威望
0  
磨币
0  
帖子
1 
发表于 2012-3-16 17:27 |显示全部帖子
感谢风向,分享

Rank: 1

UID
169432 
积分
威望
0  
磨币
0  
帖子
1 
发表于 2012-4-8 21:17 |显示全部帖子
经典 神作啊啊啊啊啊啊啊啊啊啊啊啊啊啊

Rank: 1

UID
41400 
积分
21 
威望
0  
磨币
6  
帖子
29 
发表于 2012-4-17 08:13 |显示全部帖子
果断收下

Rank: 1

UID
165148 
积分
20 
威望
0  
磨币
220  
帖子
20 
发表于 2012-6-27 14:19 |显示全部帖子
好好好
你需要登录后才可以回帖 登录 | 注册

Archiver|磨坊高品质音乐论坛 - MOOFEEL.COM

GMT+8, 2019-3-24 00:24 , Processed in 0.065941 second(s), 16 queries .

Powered by-无损音乐 X3.1

© 2001-2010 Moofeel Inc.

本站所有数据均来自网友分享,本站不提供下载,内容如侵犯您的权益请联系:imoofeel@126.com,我们会第一时间删除。